Poets of the Fall – Revolusjon Roulette (2008)

Album: Revolusjon Roulette.

Etikett: Insomniac. Laget i Finland.

Stil: Alternativ Rock, Soft Rock.

Format: FLAC (spor + .cue)

Omslag: i arkiv.

Antall spor: 11.

Storrelse RAR: 348 mb.

Passord: uten passord.

01. Digter av hosten – Mer [4:19]

02. Poets of the Fall – The Ultimate Fling [6:46]

03. Poets of the Fall – Revolusjon Roulette [6:04]

04. Poets of the Fall – Psykose [4:25]

05. Diktets host – Fragile [4:09]

06. Poets of the Fall – Clevermind [3:39]

07. Diktene til hosten – Froken umulig [3:49]

08. Diktene til hosten – Diamanter for tarer [4:10]

09. Poets of the Fall – Passion Farger Alt [3:50]

10. Digter av hosten – red meg [3:36]

11. Diktene til hosten – hvor trekker vi linjen [5:14]

Total tid [00: 50: 00,173]

Bruk noyaktig strom: Ja.

Nederlag lydbufferen: Ja.

Gjor bruk av C2 pekere: Nei.

Overread til Lead-In og Lead-Out: Nei.

Fyll opp manglende offset-prover med stillhet: Ja.

Slett ledende og etterfolgende stille blokker: Nei.

Nullprover brukt i CRC-beregninger: Nei

Brukt grensesnitt: Native Win32-grensesnitt for Win NT & amp; 2000.

Gap-handtering: Tilfoyet til forrige spor.

Eksempelformat: 44.100 Hz; 16 bit; Stereo.

TOC av den ekstraherte CDen.

1 | 0: 00.00 | 4: 18.58 | 0 | 19 407.

2 | 4: 18.58 | 6: 45,53 | 19408 | 49 835.

3 | 11: 04.36 | 6: 04.07 | 49836 | 77 142.

4 | 17: 08.43 | 4: 25,22 | 77143 | 97 039.

5 | 21: 33,65 | 4: 09.36 | 97040 | 115750.

6 | 25: 43.26 | 3: 38.39 | 115751 | 132139.

7 | 29: 21,65 | 3: 49.36 | 132140 | 149350.

8 | 33: 11.26 | 4: 09.39 | 149351 | 168064.

9 | 37: 20,65 | 3: 49,65 | 168065 | 185304.

10 | 41: 10.55 | 3: 35,53 | 185305 | 201482.

11 | 44: 46.33 | 5: 13.55 | 201483 | 225012.

Sporkvalitet 100,0%

Test CRC 9B9ACB63.

Kopier CRC 9B9ACB63.

Noyaktig revet (selvtillit 6) [20D3D76B]

Sporkvalitet 100,0%

Test CRC 59B34AA3.

Kopier CRC 59B34AA3.

Noyaktig revet (selvtillit 6) [2E00E43D]

Sporkvalitet 100,0%

Test CRC 0B648637.

Kopier CRC 0B648637.

Noyaktig revet (selvtillit 6) [ED6E6B6D]

Sporkvalitet 100,0%

Test CRC 0F06A580.

Kopier CRC 0F06A580.

Noyaktig revet (selvtillit 6) [1C629047]

Sporkvalitet 100,0%

Test CRC A69F178A.

Kopier CRC A69F178A.

Noyaktig revet (selvtillit 6) [83E41709]

Sporkvalitet 100,0%

Test CRC 6075EAF0.

Kopier CRC 6075EAF0.

Noyaktig revet (selvtillit 6) [B09E96B4]

Sporkvalitet 99,9%

Test CRC 5CA6084A.

Kopier CRC 5CA6084A.

Noyaktig revet (selvtillit 6) [D204261D]

Sporkvalitet 100,0%

Test CRC 073B94E3.

Kopier CRC 073B94E3.

Noyaktig revet (selvtillit 6) [B0E49157]

Sporkvalitet 100,0%

Test CRC 5DD9D1FA.

Kopier CRC 5DD9D1FA.

Noyaktig revet (selvtillit 6) [F95C08D9]

Sporkvalitet 100,0%

Test CRC 557F3DE6.

Kopier CRC 557F3DE6.

Noyaktig revet (selvtillit 6) [80134018]

Sporkvalitet 100,0%

Test CRC 9110C0C3.

Kopier CRC 9110C0C3.

Noyaktig revet (selvtillit 6) [33A05B3E]

Alle sporene er noyaktig revet.

– === НЕ РЕДАКТИРУЙТЕ ЭТОТ ФАЙЛ! === –

02 – = – 02 – Den ultimate Fling.flac – = – CDDA (100%)

03 – = – 03 – Revolusjon Roulette.flac – = – CDDA (100%)

04 – = – 04 – Psychosis.flac – = – CDDA (100%)

05 – = – 05 – Fragile.flac – = – CDDA (100%)

06 – = – 06 – Clevermind.flac – = – CDDA (100%)

07 – = – 07 – Froken Impossible.flac – = – CDDA (100%)

08 – = – 08 – Diamanter For Tears.flac – = – CDDA (100%)

09 – = – 09 – Passjonsfarger Everything.flac – = – CDDA (99%)

10 – = – 10 – Lagre Me.flac – = – CDDA (100%)

11 – = – 11 – Hvor trekker vi Line.flac – = – CDDA (100%)

Relaterte nyheter.

Kommentarer (0)

Brukere av gjester har ikke lov til a kommentere denne publikasjonen.